#TITLE:Rebel Souls;
#SUBTITLE:by young_editer@hotmail.com;
#ARTIST:Luciferion;
#TITLETRANSLIT:;
#SUBTITLETRANSLIT:;
#ARTISTTRANSLIT:;
#CREDIT:;
#BANNER:luciferion-bn.bmp;
#BACKGROUND:1994 - Demonication (The Manifiest)-bg.jpg;
#LYRICSPATH:;
#CDTITLE:Nepex-Chart.bmp;
#MUSIC:Luciferion (Rebel Souls).mp3;
#OFFSET:-0.240;
#SAMPLESTART:99.720;
#SAMPLELENGTH:12.000;
#SELECTABLE:YES;
#BPMS:0.000=129.600,31.000=210.000,63.000=105.000,65.000=210.000,93.000=105.000,95.000=127.000,132.000=120.000,133.000=210.000,134.000=210.000,161.000=117.000,163.000=115.000,167.000=129.000,178.000=126.500,186.000=126.000,198.000=125.600,199.000=127.000,217.000=126.660,458.000=190.000,482.000=126.300,498.000=190.000,522.000=125.000,550.000=127.000,574.000=127.100,583.000=127.200,588.000=127.400,591.000=127.700,594.000=127.760,596.000=127.800,600.000=128.000,606.000=127.500,615.000=127.140,624.000=127.300,636.000=210.000,668.000=105.000,670.000=210.000,698.000=105.000,700.000=129.960,702.667=194.940,705.667=136.100,707.667=135.100,710.667=126.000;
#STOPS:;
#BGCHANGES:;

//---------------dance-single - Death Metal----------------
#NOTES:
     dance-single:
     Death Metal:
     Hard:
     14:
     1.000,1.000,1.000,0.370,1.000:
0000
0000
0000
0000
0000
0000
0010
0000
0100
0001
0100
0000
0010
0000
1000
0001
1000
0000
0100
0000
0010
0001
0010
0000
,
2002
0000
0000
0000
3223
0000
0000
0330
0022
0000
0000
0033
2020
0000
0000
0000
3031
0000
0100
0000
0001
0000
0000
0000
1000
0000
0000
0000
0100
0000
0010
0000
0001
0000
0000
0000
0100
0000
0000
0000
0010
0000
1000
0000
0010
0000
1000
0000
,
0010
0000
0100
0001
0100
0001
0100
0000
0001
0010
0001
0000
1000
0000
0100
0010
0100
0000
0001
0000
1000
0010
1000
0000
,
0220
0000
0000
0000
2332
0000
0000
3003
2020
0000
0000
3030
2200
0000
0000
0000
3310
0000
0001
0000
0010
0000
0000
0000
0100
0000
0000
0000
0001
0000
1000
0000
0010
0000
0000
0000
0001
0000
0000
0000
1000
0000
0100
0000
1000
0000
0100
0000
,
1000
0000
0001
0010
0001
0010
0001
0000
0010
1000
0010
0000
0100
0000
0001
1000
0001
0000
0010
0000
0100
1000
0100
0000
,
2002
0000
0000
0000
3223
0000
0000
0330
2200
0000
0000
3300
0202
0000
0000
0000
1303
0000
0010
0000
1000
0000
0000
0000
0001
0000
0000
0000
0010
0000
0100
0000
1000
0000
0000
0000
0010
0000
0000
0000
0100
0000
0001
0000
0100
0000
0001
0000
,
0100
0000
0010
1000
0010
1000
0010
0000
0100
0001
0100
0000
0010
0000
1000
0001
1000
0000
0100
0000
0010
0001
0010
0000
,
2002
0000
0000
0000
3223
0000
0000
0330
0022
0000
0000
0033
2020
0000
0000
0000
3031
0000
0100
0000
0001
0000
0000
0000
1000
0000
0000
0000
0100
0000
0010
0000
0001
0000
0000
0000
1000
0000
0000
0001
0000
0000
0100
0000
0000
0000
0000
0000
,
0100
0000
0000
0000
0010
0000
0000
0000
1000
0000
0000
0000
0000
0000
0000
0000
1000
0000
0000
0000
0001
0000
0000
0000
0100
0000
0000
0000
0000
0000
0000
0000
0022
0000
0000
0000
0000
0000
0000
0000
0000
0000
0000
0000
0000
0000
0000
0033
1010
0000
0000
0000
0000
0000
0000
0000
0000
0000
0000
0000
0000
0000
0000
0000
,
0100
0000
1010
0000
1000
0000
0101
0000
0010
0100
1010
0000
0001
0000
0110
0000
,
1000
0011
0100
1010
0001
0110
0001
1010
,
0100
0000
1001
0000
0100
0000
0011
0000
0100
0010
1001
0000
0010
0000
0101
0000
,
1000
0011
0100
1010
0001
1010
0100
0011
,
0100
0000
1001
0000
0010
0000
0101
0000
1000
0010
0101
0000
1000
0000
0011
0000
,
0100
1010
0100
1001
0010
0101
1000
0110
,
0001
0000
1010
0000
0100
0000
0011
0000
1000
0001
0100
0001
1000
0010
0100
0001
,
0100
0000
0000
0000
0010
0000
0000
0000
1000
0000
0000
0000
0100
0000
0000
0000
2002
0000
0000
0000
0000
0000
0000
0000
0000
0000
0000
0000
0000
0000
0000
3003
0010
0000
0000
0000
0000
0000
0000
0000
0101
0000
0000
0000
0000
0000
0000
0000
0010
0000
0000
0000
0000
0000
0000
0000
1100
0000
0000
0000
0000
0000
0000
0000
,
1000
0010
1100
0000
0001
0100
0011
0000
0100
0000
1001
0000
0010
0000
1001
0000
,
0100
0011
1000
0101
0010
1100
0010
0101
,
1000
0001
1100
0000
0010
0100
0011
0000
0100
0000
1010
0000
0100
0000
0011
0000
,
1000
0101
1000
0110
0001
1010
0001
1010
,
0100
0001
1100
0000
0010
1000
0110
0000
0001
0000
1010
0000
0001
0000
0110
0000
,
1000
0011
0100
1010
0001
0110
1000
0101
,
0010
0000
0000
0000
0000
0000
0000
0000
0000
0000
0000
0000
1000
0000
0000
0000
0000
0000
0000
0000
0000
0000
0000
0000
0010
0000
0000
0000
0000
0000
0000
0000
0000
0000
0000
0000
0100
0000
0000
0000
0000
0000
0000
0000
0000
0000
0000
0000
0011
0000
0000
0000
0000
0000
0000
0000
0000
0000
0000
0000
0000
0000
0000
0000
0000
0000
0000
0000
0000
0000
0000
0000
1100
0000
0000
0000
0000
0000
0000
0000
0000
0000
0000
0000
0100
0000
0000
0000
0000
0000
0000
0000
0000
0000
0000
0000
0000
0000
0000
0000
0000
0000
0000
0000
0000
0000
0000
0000
0011
0000
0000
0000
0000
0000
0000
0000
0000
0000
0000
0000
0010
0000
0000
0000
0000
0000
0000
0000
0000
0000
0000
0000
0000
0000
0000
0000
0000
0000
0000
0000
0000
0000
0000
0000
2200
0000
0000
0000
0000
0000
0000
0000
0000
0000
0000
0000
0000
0000
0000
0000
0001
0000
0000
0000
0000
0000
0000
0000
0000
0000
0000
0000
0000
0000
0000
0000
0010
0000
0000
0000
0000
0000
0000
0000
0000
0000
0000
0000
0000
3300
0000
0000
,
0202
0000
0000
0000
0000
0000
0000
0000
0000
0000
0000
0000
0000
0000
0000
0000
1000
0000
0000
0000
0000
0000
0000
0000
0000
0000
0000
0000
0000
0000
0000
0000
0010
0000
0000
0000
0000
0000
0000
0000
0000
0000
0000
0000
0000
0303
0000
0000
1000
0000
0000
0000
0000
0000
0000
0000
0010
0000
0000
0000
0000
0000
0000
0000
0100
0000
0000
0000
0000
0000
0000
0000
0010
0000
0000
0000
0000
0000
0000
0000
1000
0000
0000
0000
0000
0000
0000
0000
0100
0000
0000
0000
0000
0000
0000
0000
1000
0000
0000
0000
0000
0000
0000
0000
0001
0000
0000
0000
0000
0000
0000
0000
0100
0000
0000
0000
0000
0000
0000
0000
0010
0000
0000
0000
0000
0000
0000
0000
1000
0000
0000
0000
0000
0000
0000
0000
0001
0000
0000
0000
0000
0000
0000
0000
0100
0000
0000
0000
0000
0000
0000
0000
0010
0000
0000
0000
0000
0000
0000
0000
1000
0000
0000
0000
0000
0000
0000
0000
0010
0000
0000
0000
0000
0000
0000
0000
0001
0000
0000
0000
0000
0000
0000
0000
0010
0000
0000
0000
0000
0000
0000
0000
,
1000
0010
0001
0010
0100
0001
0100
0010
0001
0010
0100
0010
1000
0100
1000
0100
0010
0100
0010
0001
0100
0010
0001
0010
,
0100
0010
1000
0100
0010
0001
1100
0000
0110
0000
0011
0000
1000
0001
0100
0010
1000
0100
1000
0001
0100
0010
0001
0010
,
0100
0010
1000
0100
1000
0001
0100
0010
1000
0010
0100
0001
1000
0010
0100
0010
1000
0001
0100
0010
0100
0010
0001
0010
,
0100
0010
0001
0010
0100
0010
1000
0100
0010
0001
0010
0100
1001
0000
0101
0000
0011
0000
1000
0010
0100
0010
1000
0100
,
1000
0001
0100
0010
1000
0001
0100
0010
1000
0010
0001
0010
1000
0010
0001
0010
0100
0001
0100
0010
0001
0010
0100
0010
,
1000
0100
1000
0100
0010
0100
0010
0001
0100
0010
0001
0010
0100
0010
1000
0100
0010
0001
1100
0000
1010
0000
0101
0000
,
0001
0100
0010
0100
0001
0010
0001
1000
0010
0100
0001
1000
0010
0100
0001
0100
1000
0100
0001
0100
1000
0100
0010
1000
,
0010
0100
1000
0100
0010
0100
0001
0010
0001
0010
0100
0010
0100
1000
0010
0100
1000
0100
0010
0100
0001
0010
0100
1000
,
0011
0000
0000
0000
1010
0000
0000
0000
0101
0000
0000
0000
1010
0000
0000
0000
0000
0000
0000
0000
0000
0000
0000
0000
0010
0000
0000
0000
0000
0000
1001
0000
0000
0000
0000
0000
0100
0000
0000
0010
0000
0000
0100
0000
0000
0000
0000
0000
,
0010
1000
0010
0000
0001
1000
0101
0000
1000
0000
0011
0000
0100
0000
1001
0000
,
0010
0000
0101
0000
1000
0000
0011
0000
0100
0000
1001
0000
0100
0010
1000
0000
,
1000
0010
0100
0000
0100
0001
1010
0000
0100
0000
0011
0000
1000
0000
0101
0000
,
0010
0000
1001
0000
0010
0000
1100
0000
0010
0000
1000
0000
0010
0100
1000
0000
,
1000
0100
0010
0000
0010
0100
1001
0000
0100
0000
0011
0000
1000
0000
0101
0000
,
0010
0000
1100
0000
0001
0000
1010
0000
0100
0000
1001
0000
0100
0001
0010
0000
,
0010
0000
0000
0001
0000
0000
1000
0000
0000
0010
0000
0000
0101
0000
0000
0000
0000
0000
0000
0000
1010
0000
0000
0000
1000
0000
0000
0000
0000
0000
0000
0000
0011
0000
0000
0000
0001
0000
0010
0000
0100
0000
0010
0000
1000
0000
0100
0000
,
1000
0001
0100
0010
1000
0001
0100
0010
1000
0010
0001
0010
1000
0010
0001
0010
0100
0001
0100
0010
0001
0010
0100
0010
,
1000
0100
1000
0100
0010
0100
0010
0001
0100
0010
0001
0010
0100
0010
1000
0100
0010
0001
1100
0000
0110
0000
0011
0000
,
1000
0001
0100
0010
1000
0100
1000
0001
0100
0010
0001
0010
0100
0010
1000
0100
1000
0001
0100
0010
1000
0010
0100
0001
,
1000
0010
0100
0010
1000
0001
0100
0010
0100
0010
0001
0010
0100
0010
0001
0010
0100
0010
1000
0100
0010
0001
0010
0100
,
1001
0000
0101
0000
0011
0000
1000
0010
0100
0010
1000
0100
1000
0001
0100
0010
1000
0001
0100
0010
1000
0010
0001
0010
,
1000
0010
0001
0010
0100
0001
0100
0010
0001
0010
0100
0010
1000
0100
1000
0100
0010
0100
0010
0001
0100
0010
0001
0010
,
0100
0010
1000
0100
0010
0001
1100
0000
1010
0000
0101
0000
0001
0100
0010
0100
0001
0010
0001
1000
0010
0100
0001
1000
,
0010
0100
0001
0100
1000
0100
0001
0100
1000
0100
0010
1000
0010
0100
1000
0100
0010
0100
0001
0010
0001
0010
0100
0010
,
0100
1000
0010
0100
1000
0100
0010
0100
0001
0010
0100
1000
0011
0000
1010
0000
0101
0000
1010
0000
0100
0000
0010
0000
,
2002
0000
0100
0010
3103
0000
0001
0000
1000
0000
0010
0000
0100
0000
0001
1000
0001
0000
0100
0000
1000
0000
0100
0000
,
0010
0000
0100
0001
0100
0000
0001
0000
1000
0000
0100
0000
0010
0000
0001
0100
0001
0000
1010
0000
0101
0000
0011
0000
,
1100
0000
1001
0000
0110
0000
1001
0000
0100
0001
0100
0000
0010
0000
1000
0000
0100
0000
0010
0000
0001
1000
0001
0000
,
0100
0000
0000
0000
0000
0000
0000
0000
0000
0000
0000
0000
0000
0000
0000
0000
0010
0000
0000
0000
0000
0000
0000
0000
0000
0000
0000
0000
0000
0000
0000
0000
0001
0000
0000
0000
0000
0000
0000
0000
0000
0000
0000
0000
0000
0000
0000
0000
2020
0000
0000
0000
0000
0000
0000
0000
0000
0000
0000
0000
0000
0000
0000
0000
0100
0000
0000
0000
0000
0000
0000
0000
0001
0000
0000
0000
0000
0000
0000
0000
0100
0000
0000
0000
0000
0000
0000
0000
0000
0000
0000
0000
0000
3030
0000
0000
0022
0000
0000
0000
0000
0000
0000
0000
0000
0000
0000
0000
0000
0000
0000
0000
1000
0000
0000
0000
0000
0000
0000
0000
0100
0000
0000
0000
0000
0000
0000
0000
1000
0000
0000
0000
0000
0000
0000
0000
0000
0000
0000
0000
0000
0033
0000
0000
0220
0000
0000
0000
0000
0000
0000
0000
0000
0000
0000
0000
0000
0000
0000
0000
0001
0000
0000
0000
0000
0000
0000
0000
1000
0000
0000
0000
0000
0000
0000
0000
0001
0000
0000
0000
0000
0000
0000
0000
1000
0000
0000
0000
0000
0330
0000
0000
,
0001
0100
0010
1000
0100
0010
0001
0000
0100
0010
0100
0000
0010
0000
1000
0000
0001
0000
0100
0000
0001
0010
0001
0000
,
0100
0000
0010
0000
1000
0000
0100
0000
0010
0100
0010
0000
0001
0000
0100
0000
0010
0000
0001
0000
0010
1000
0100
0000
,
0010
0000
0001
0000
0100
0000
0010
0000
1000
0001
0100
0000
0010
0000
1000
0000
0100
0000
0010
0000
0001
1000
0100
0000
,
0010
0000
0001
0000
0100
0000
0010
0000
1000
0001
1000
0000
0010
0000
0100
0000
0001
0000
0010
0000
0100
1000
0100
0000
,
0010
0000
0100
0000
0001
0000
1000
0000
0010
0100
0010
0000
0100
0000
0001
0000
1000
0000
0010
0000
1000
0100
1000
0000
,
0010
0000
0100
0000
0001
0000
0010
0000
0100
0010
0100
0000
1000
0000
0010
0000
0100
0000
1000
0000
0100
0001
0010
0000
,
0100
0000
1000
0000
0010
0000
0100
0000
0001
1000
0010
0000
0100
0000
0001
0000
0010
0000
0100
0000
1000
0001
0010
0000
,
0100
0000
1000
0000
0010
0000
0100
0000
0001
1000
0001
0000
0100
0000
0010
0000
1000
0000
0100
0000
0010
0001
0010
0000
,
0100
0000
0000
0000
0000
0000
0000
0000
0000
0000
0000
0000
0000
0000
0000
0000
0010
0000
0000
0000
0000
0000
0000
0000
0000
0000
0000
0000
0000
0000
0000
0000
1000
0000
0000
0000
0000
0000
0000
0000
0000
0000
0000
0000
0000
0000
0000
0000
0220
0000
0000
0000
0000
0000
0000
0000
0000
0000
0000
0000
0000
0000
0000
0000
0000
0000
0000
0000
0000
0000
0000
0000
0000
0000
0000
0000
0000
0000
0000
0000
0000
0000
0000
0000
0000
0000
0000
0000
0000
0000
0300
0000
0000
0030
0000
0000
0101
0000
0000
0000
0000
0000
0000
0000
0000
0000
0000
0000
0000
0000
0000
0000
0010
0000
0000
0000
0000
0000
0000
0000
0000
0000
0000
0000
0000
0000
0000
0000
1000
0000
0000
0000
0000
0000
0000
0000
0000
0000
0000
0000
0000
0000
0000
0000
0100
0000
0000
0000
0000
0000
0000
0000
0000
0000
0000
0000
0000
0000
0000
0000
0010
0000
0000
0000
0000
0000
0000
0000
0000
0000
0000
0000
0000
0000
0000
0000
0100
0000
0000
0000
0000
0000
0000
0000
0000
0000
0000
0000
0000
0000
0000
0000
,
0010
0001
0100
0010
1000
0001
0100
0010
0100
0010
0001
0010
,
0100
0010
0100
0010
1000
0100
1000
0001
0100
0010
0100
0010
,
0001
0100
0010
0100
0010
1000
0100
1000
0001
0100
0010
1000
,
0100
0000
0000
0000
1000
0000
0000
0000
0001
0000
0000
0000
0100
0000
0000
0000
0010
0000
0000
0000
0100
0000
0000
0000
0010
0100
0010
0000
1000
0000
0000
0000
0100
0000
0000
0000
0001
0000
0000
0000
0100
0000
0000
0000
1000
0000
0000
0000
,
0100
0001
0100
1000
0100
0010
0001
0010
1000
0010
0001
0010
,
0100
0010
0001
0100
0010
0100
0010
1000
0001
0100
0010
0100
,
0010
0001
0010
0100
0010
0001
0010
0100
0010
1000
0100
1000
,
0100
0000
0000
0000
1000
0000
0000
0000
0010
0000
0000
0000
0100
0000
0000
0000
0010
0000
0000
0000
1000
0000
0000
0000
0100
0010
0100
0000
0001
0000
0000
0000
0100
0000
0000
0000
0010
0000
0000
0000
0001
0000
0000
0000
0100
0000
0000
0000
,
0010
0001
0010
0100
0010
0001
1000
0100
0010
0001
1000
0100
,
0010
0001
1000
0100
0010
0001
0010
0100
1000
0001
0010
0100
,
1000
0001
0010
0100
0010
1000
0100
1000
0001
0100
0010
1000
,
0001
0000
0000
0000
0100
0000
0000
0000
0010
0000
0000
0000
1000
0000
0000
0000
0001
0000
0000
0000
0100
0000
0000
0000
0010
1000
0010
0000
0100
0000
0000
0000
0010
0000
0000
0000
0001
0000
0000
0000
0010
0000
0000
0000
0100
0000
0000
0000
,
0010
1000
0100
1000
0001
0100
0010
1000
0010
0100
0010
1000
,
0100
0010
0100
1000
0010
0100
1000
0100
0010
1000
0100
0010
,
0100
1000
0010
0100
0010
0001
0010
0100
0001
0010
0100
0010
,
0001
0100
0001
0000
0010
0000
0001
1000
0001
0000
0100
0000
0010
0000
1000
0001
1000
0000
0001
0000
0100
0000
0010
0000
,
1000
0000
0001
0100
0001
0000
0010
0000
0100
0000
0010
0000
0001
0000
1000
0100
1000
0000
0001
0000
0100
0000
0010
0000
,
1000
0000
0001
1000
0001
0000
0100
0000
0010
0000
1000
0000
0200
0000
0000
0000
0000
0000
0310
0000
0000
0000
1000
0000
,
0010
1000
0010
0100
0010
0100
0010
0001
0010
0100
0010
0100
0010
1000
0100
1000
0100
1000
0100
0010
0001
0010
0001
0100
,
0020
0000
1000
0000
0001
0000
0130
0000
0010
0000
1000
0000
0110
0000
1000
0001
1000
0000
0010
0000
0100
0000
0010
0000
,
1000
0000
0001
0100
0001
0000
0010
0000
0100
0000
0010
0000
0001
0000
0100
0010
0100
0000
0010
0000
1000
0000
0100
0000
,
0001
0000
0100
0001
0100
1000
0010
0100
0001
0010
0100
1000
0010
0000
0100
0001
0100
0000
0001
0000
0000
0000
1000
0000
,
0001
0010
0100
1000
0100
0010
0001
0000
0000
0000
0000
0000
1000
0100
0010
0100
1000
0100
0010
0001
0010
0100
1000
0001
,
0010
0100
0010
0001
0010
0100
2000
0000
0000
0000
3100
0000
0001
0000
0100
0010
0100
0000
0010
0000
0001
0000
0100
0000
,
0010
0000
1000
0001
1000
0000
0002
0000
0010
0000
1003
0000
0001
0000
0100
0001
0100
0000
0010
0000
1000
0000
0001
0000
,
0100
0000
0010
0100
0010
0100
0010
1000
0010
1000
0010
0100
0001
0010
0100
1000
0100
0010
0001
1000
0100
0010
0001
0010
,
0100
1000
0001
0010
0100
1000
0100
0010
0001
1000
0100
0010
0001
0010
0100
1000
0001
0010
0100
1000
0100
0010
0001
1000
,
0100
0010
0001
0010
0100
1000
0001
0010
0100
1000
0100
0010
0001
0100
0001
0100
0001
0100
0001
0100
0001
0100
0001
0100
,
0001
1000
0010
1000
0010
1000
0010
1000
0010
1000
0010
1000
0010
1000
0001
1000
0001
1000
0001
1000
0001
1000
0001
1000
,
0010
0100
0010
0100
0010
0100
0010
0100
0010
0100
0010
0100
0020
0000
0100
0000
0001
0000
1030
0100
0010
0100
1000
0100
,
0010
0100
1000
0100
0010
0100
1000
0100
0010
0100
1000
0100
0010
0001
0010
0100
0010
0001
0010
0100
0010
0001
0010
0100
,
0010
0001
0010
0100
0010
0001
0010
0100
0010
0001
0010
0100
0020
0001
0100
0001
0100
0001
0100
0001
0100
0001
0100
0001
,
0100
0001
1000
0001
1000
0001
1000
0001
1000
0001
1000
0001
0100
0001
0100
0001
1000
0001
1000
0001
0100
0001
0100
1000
,
0100
1000
0100
1000
0100
1000
0100
1000
0100
0001
0100
0001
0130
0001
0100
0010
1000
0100
1000
0100
1000
0010
0100
0010
,
0100
0010
1000
0001
0100
0010
1000
0100
1000
0001
0100
0010
0001
0010
0100
0010
1000
0100
1000
0100
0001
0100
1000
0100
,
0001
0100
0010
0001
0010
1000
0010
0001
0010
0100
0001
0100
1000
0100
0001
0100
0010
0001
0100
0010
0100
0010
1000
0001
,
0100
0010
0100
0010
0100
0010
1000
0100
1000
0001
0100
0010
0100
0010
0001
0010
0100
0010
0001
0010
0100
0010
1000
0100
,
1000
0001
0100
0010
0100
0010
1000
0100
0010
0100
1000
0010
0100
1000
0100
0010
1000
0100
0010
0100
0010
0001
0100
0010
,
0100
0010
1000
0001
0100
0010
0001
1000
0100
0010
0001
1000
0100
0010
0100
0010
1000
0100
1000
0001
0100
0010
0100
0010
,
0001
0010
1000
0100
1000
0100
0001
0100
0010
0001
0100
0010
0001
0000
1000
0010
1000
0000
0100
0000
0010
0000
0001
0000
,
0100
0000
0010
1000
0010
0000
0100
0000
0001
0000
0100
0000
0010
0000
1000
0001
1000
0000
0100
0000
0010
0000
0001
0000
,
1000
0000
0010
1000
0010
0000
0100
0000
0001
0000
0100
0000
0010
0000
1000
0001
0100
0000
0010
0000
1000
0000
0100
0000
,
0010
0000
0100
0010
0100
0000
1000
0000
0001
0000
0100
0000
0010
0000
1000
0001
1000
0000
0100
0000
0010
0000
0001
0000
,
1000
0000
0010
0100
0010
0000
1000
0000
0001
0000
0100
0000
0010
0000
0100
0001
0100
0000
0001
0000
1000
0000
0100
0000
,
0010
0000
0001
1000
0001
0000
0100
0000
0010
0000
1000
0000
0100
0000
0010
0001
0010
0000
0100
0000
0010
0000
0001
0000
,
0100
0000
0010
1000
0010
0000
0100
0000
0001
0000
0100
0000
0001
0000
1000
0001
0100
0000
0001
0000
0100
0000
0010
0000
,
0001
0000
0010
0100
0010
0000
1000
0000
0100
0000
1000
0000
0010
0000
0100
0001
0100
0000
0001
0000
0010
0000
0100
0000
,
0010
0000
0001
1000
0100
0000
0010
0000
0100
0000
0010
0000
0001
0000
1000
0010
1000
0000
0010
0000
1000
0001
1000
0000
,
0001
0000
0100
0001
0100
0000
1010
0000
0110
0000
1001
0000
0100
0000
0010
1000
0010
0000
0100
0000
0001
1000
0001
0000
,
0100
0000
0010
1000
0010
0000
0101
0000
0011
0000
1010
0000
0001
0000
1000
0010
1000
0000
0010
0000
1000
0001
1000
0000
,
0001
0000
0100
0001
0100
0000
1010
0000
0110
0000
1001
0000
0100
0000
0010
1000
0010
0000
0100
0000
0001
1000
0001
0000
,
0100
0000
0010
1000
0010
0000
1000
0010
1000
0010
1000
0000
0101
0000
0000
0011
0000
0000
1001
0000
0000
1010
0000
0000
,
0110
0101
0011
1001
1010
0110
0101
0011
,
1001
1010
0101
0011
1001
0110
1010
0110
,
1001
0000
0010
0000
0100
0010
0100
0000
1001
0000
0110
0000
0011
0000
1001
0000
,
1010
0110
1010
0101
0011
1001
1010
0110
,
1001
0011
0101
0011
1001
1010
0110
1010
,
0101
0000
0000
0000
0000
0000
0010
0000
0000
0000
0000
0000
1000
0000
0000
0001
0000
0000
0100
0000
0000
0000
0000
0000
0001
0000
0000
0000
1000
0000
0010
0000
1000
0000
0000
0000
0010
0000
0000
0000
1000
0000
0001
0000
1000
0000
0000
0000
,
0001
0000
0100
0001
0100
0000
1010
0000
0110
0000
1001
0000
0100
0000
0010
1000
0010
0000
0100
0000
0001
1000
0001
0000
,
0100
0000
0010
1000
0010
0000
0101
0000
0011
0000
1010
0000
0001
0000
1000
0010
1000
0000
0010
0000
1000
0001
1000
0000
,
0001
0000
0100
0001
0100
0000
1010
0000
0110
0000
1001
0000
0100
0000
0010
1000
0010
0000
0100
0000
0001
1000
0001
0000
,
0100
0000
0010
1000
0010
0000
1000
0010
1000
0010
1000
0000
0101
0000
0000
0011
0000
0000
1001
0000
0000
1010
0000
0000
,
0110
0101
0011
1001
1010
0110
0101
0011
,
1001
1010
0101
0011
1001
0110
1010
0110
,
1001
0000
0010
0000
0100
0010
0100
0000
1001
0000
0110
0000
0011
0000
1001
0000
,
1010
0110
1010
0101
0011
1001
1010
0110
,
1001
0011
0101
0011
1001
1010
0110
1010
,
0101
0000
0010
0000
1000
0001
0100
0000
2020
0000
0000
0000
0000
0000
0000
0000
,
0000
0000
0000
0000
0000
0000
0000
0000
0000
0000
0000
0000
0000
0000
0000
0000
0000
0000
0000
0000
0000
0000
0000
0000
0000
0000
0000
0000
0000
0000
0000
0000
0000
0000
0000
0000
0000
0000
0000
0000
0000
0000
0000
0000
0000
3030
0000
0000
0101
0000
0000
0000
0000
0000
0000
0000
0000
0000
0000
0000
0000
0000
0000
0000
1010
0000
0000
0000
0000
0000
0000
0000
0000
0000
0000
0000
0000
0000
0000
0000
0011
0000
0000
0000
0000
0000
0000
0000
0000
0000
0000
0000
0000
0000
0000
0000
0220
0000
0000
0000
0000
0000
0000
0000
0000
0000
0000
0000
0000
0000
0000
0000
0000
0000
0000
0000
0000
0000
0000
0000
0000
0000
0000
0000
0000
0000
0000
0000
0000
0000
0000
0000
0000
0000
0000
0000
0000
0000
0000
0000
0000
0000
0000
0000
2332
0000
0000
0000
0000
0000
0000
0000
0000
0000
0000
0000
0000
0000
0000
0000
0000
0000
0000
0000
0000
0000
0000
0000
0000
0000
0000
0000
0000
0000
0000
0000
0000
0000
0000
0000
0000
0000
0000
0000
0000
0000
0000
0000
0000
0000
0000
0000
,
0000
0000
0000
0000
0000
0000
0000
0000
0000
0000
0000
0000
0000
0000
0000
3003
0202
0000
0000
0000
0000
0000
0000
0000
0000
0000
0000
0000
0000
0000
0000
0000
0000
0000
0000
0000
0000
0000
0000
0000
0000
0000
0000
0000
0000
0000
0000
0000
0000
0000
0000
0000
0000
0000
0000
0000
0000
0000
0000
0000
0000
0000
0000
0000
,
1313
0110
1001
0202
0000
0000
1313
0101
0011
1010
0000
0000
,
2020
0000
0000
0000
0000
0000
0000
0000
0000
0000
0000
0000
0000
0000
0000
0000
0000
0000
0000
0000
0000
0000
0000
0000
0000
0000
0000
0000
0000
0000
0000
0000
0000
0000
0000
0000
0000
0000
0000
0000
0000
0000
0000
0000
0000
0000
0000
0000
0000
0000
0000
0000
0000
0000
0000
0000
0000
0000
0000
0000
0000
0000
0000
0000
0000
0000
0000
0000
0000
0000
0000
0000
0000
0000
0000
0000
0000
0000
0000
0000
0000
0000
0000
0000
0000
0000
0000
0000
0000
0000
0000
0000
0000
0000
0000
0000
0000
0000
0000
0000
0000
0000
0000
0000
0000
0000
0000
0000
0000
0000
0000
0000
0000
0000
0000
0000
0000
0000
0000
0000
0000
0000
0000
0000
0000
0000
0000
0000
0000
0000
0000
0000
0000
0000
0000
0000
0000
0000
0000
0000
0000
3030
0000
0000
0011
0000
0000
0000
0000
0000
0000
0000
0000
0000
0000
0000
0000
0000
0000
0000
0011
0000
0000
0000
0000
0000
0000
0000
0000
0000
0000
0000
0000
0000
0000
0000
0011
0000
0000
0000
0000
0000
0000
0000
0000
0000
0000
0000
0000
0000
0000
0000
,
2002
0000
0000
0000
0000
0000
0000
0000
0000
0000
0000
0000
0000
0000
0000
0000
0000
0000
0000
0000
0000
0000
0000
0000
0000
0000
0000
0000
0000
0000
0000
0000
0000
0000
0000
0000
0000
0000
0000
0000
0000
0000
0000
0000
0000
0000
0000
0000
3223
0000
0000
0000
0000
0000
0000
0000
0000
0000
0000
0000
0000
0000
0000
0000
0000
0000
0000
0000
0000
0000
0000
0000
0000
0000
0000
0000
0000
0000
0000
0000
0000
0000
0000
0000
0000
0000
0000
0000
0000
0000
0000
0000
0000
0330
0000
0000
1010
0000
0000
0000
0000
0000
0000
0000
0000
0000
0000
0000
0000
0000
0000
0000
0101
0000
0000
0000
0000
0000
0000
0000
0000
0000
0000
0000
0000
0000
0000
0000
0110
0000
0000
0000
0000
0000
0000
0000
0000
0000
0000
0000
0000
0000
0000
0000
0202
0000
0000
0000
0000
0000
0000
0000
0000
0000
0000
0000
0000
0000
0000
0000
0000
0000
0000
0000
0000
0000
0000
0000
0000
0000
0000
0000
0000
0000
0000
0000
0000
0000
0000
0000
0000
0000
0000
0000
0000
0000
0000
0000
0000
0000
0000
0000
,
0000
0000
0000
0000
0000
0000
1313
0011
1010
0202
0000
0000
,
1313
0110
1010
0101
0010
1000
0001
0100
0010
1001
0100
1000
,
0001
0100
0010
1100
0010
0001
0010
0100
0010
1001
0010
0100
,
0010
1000
0100
1010
0001
0100
0010
1000
0100
1010
0100
1000
,
0001
0100
0001
1100
0001
0010
0001
0010
0001
1100
0001
1000
,
0001
0100
0010
0101
0010
1000
0010
1000
0010
0101
0010
0100
,
0010
1000
0001
1010
0001
0100
0001
0100
0001
1010
0001
0010
,
0001
1000
0100
1001
0100
0010
0100
0010
0100
1010
0001
0100
,
0010
1000
0100
1000
0001
0100
0010
0001
1000
0101
0010
0001
,
1000
0100
0010
0101
1000
0100
0010
0100
0010
1001
0100
1000
,
0001
0100
0010
1001
0100
0010
0001
1000
0100
1010
0001
0010
,
0100
0010
0001
1100
0010
0100
0010
1000
0100
1001
0010
0100
,
0010
1000
0001
1100
0010
0001
0010
0100
0010
1001
0010
0001
,
0010
1000
0010
0101
0010
1000
0010
0100
0001
1100
0010
1000
,
0010
0100
0001
1100
0010
1000
0100
1000
0100
0011
0100
0010
,
0001
0000
0100
0010
0100
0000
0001
0000
1000
0000
0100
0000
0010
0000
0100
0001
0100
0000
0010
0000
1000
0001
1000
0000
,
0100
0000
0000
0000
0010
0000
0001
0000
0010
0000
0000
0000
2002
0000
0000
0000
3223
0000
0000
0330
0022
0000
0000
0033
2020
0000
0000
0000
3031
0000
0100
0000
0001
0000
0000
0000
1000
0000
0000
0000
0100
0000
0010
0000
0001
0000
0000
0000
,
0100
0000
0010
1000
0010
1000
0010
0000
0100
0001
0100
0001
0100
0000
0001
0010
0001
0000
1000
0000
0100
0010
0100
0000
,
0001
0000
0000
0000
1000
0000
0010
0000
1000
0000
0000
0000
0220
0000
0000
0000
2332
0000
0000
3003
2020
0000
0000
3030
2200
0000
0000
0000
3310
0000
0001
0000
0010
0000
0000
0000
0100
0000
0000
0000
0001
0000
1000
0000
0010
0000
0000
0000
,
0001
0000
1000
0100
1000
0100
1000
0000
0001
0010
0001
0010
0001
0000
0010
1000
0010
0000
0100
0000
0001
1000
0001
0000
,
0010
0000
0000
0000
0100
0000
1000
0000
0100
0000
0000
0000
2002
0000
0000
0000
3223
0000
0000
0330
2200
0000
0000
3300
0202
0000
0000
0000
1303
0000
0010
0000
1000
0000
0000
0000
0001
0000
0000
0000
0010
0000
0100
0000
1000
0000
0000
0000
,
0010
0000
0100
0001
0100
0001
0100
0000
0010
1000
0010
1000
0010
0000
0100
0001
0100
0000
0010
0000
1000
0001
1000
0000
,
0100
0000
0000
0000
0010
0000
0001
0000
0010
0000
0000
0000
2002
0000
0000
0000
3223
0000
0000
0330
0022
0000
0000
0033
2020
0000
0000
0000
3031
0000
0100
0000
0001
0000
0000
0000
1000
0000
0000
0000
0100
0000
0010
0000
0001
0000
0000
0000
,
1000
0000
0000
0000
0001
0000
0000
0000
0100
0000
0000
0000
0000
0000
0000
0000
0100
0000
0000
0000
0010
0000
0000
0000
1000
0000
0000
0000
0000
0000
0000
0000
1000
0000
0000
0000
0001
0000
0000
0000
0100
0000
0000
0000
0000
0000
0000
0000
0022
0000
0000
0000
0000
0000
0000
0000
0000
0000
0000
0000
0000
0000
0000
0033
,
1010
0000
0000
0000
0100
0000
1010
0000
1000
0000
0101
0000
0010
0100
1010
0000
,
0001
0110
1000
0011
0100
1010
0001
0110
,
0001
0000
1010
0000
0100
0000
1001
0000
0100
0000
0011
0000
0100
0010
1001
0000
,
0010
0101
1000
0011
0100
1010
0001
1010
,
0100
0000
0011
0000
0100
0000
1001
0000
0010
0000
0101
0000
1000
0010
0101
0000
,
1000
0011
0100
1010
0100
1001
0010
0101
,
1000
0000
0110
0000
0001
0000
1010
0000
0100
0000
0011
0000
1000
0001
0100
0001
,
1000
0000
0000
0000
0010
0000
0000
0000
0100
0000
0000
0000
0001
0000
0000
0000
0100
0000
0000
0000
0010
0000
0000
0000
1000
0000
0000
0000
0100
0000
0000
0000
2002
0000
0000
0000
0000
0000
0000
0000
0000
0000
0000
0000
0000
0000
0000
3003
0010
0000
0000
0000
0000
0000
0000
0000
0101
0000
0000
0000
0000
0000
0000
0000
,
0010
0000
1100
0000
1000
0010
1100
0000
0001
0100
0011
0000
0100
0000
1001
0000
,
0010
1001
0100
0011
1000
0101
0010
1100
,
0010
0000
0101
0000
1000
0001
1100
0000
0010
0100
0011
0000
0100
0000
1010
0000
,
0100
0011
1000
0101
1000
0110
0001
1010
,
0001
0000
1010
0000
0100
0001
1100
0000
0010
1000
0110
0000
0001
0000
1010
0000
,
0001
0110
1000
0011
0100
1010
0001
0110
,
1000
0000
0101
0000
0010
1000
0010
0100
0011
0000
1100
0100
0000
0011
0010
0000
,
2200
0000
0000
0000
0000
0000
0000
0000
0000
0000
0000
0000
0000
0000
0000
0000
0001
0000
0000
0000
0000
0000
0000
0000
0000
0000
0000
0000
0000
0000
0000
0000
0010
0000
0000
0000
0000
0000
0000
0000
0000
0000
0000
0000
0000
0000
0300
0000
3202
0000
0000
0000
0000
0000
0000
0000
0000
0000
0000
0000
0000
0000
0000
0000
1000
0000
0000
0000
0000
0000
0000
0000
0000
0000
0000
0000
0000
0000
0000
0000
0010
0000
0000
0000
0000
0000
0000
0000
0000
0000
0000
0000
0000
0000
0000
0000
1303
0000
0000
0000
0000
0000
0000
0000
0001
0000
0000
0000
0000
0000
0000
0000
0100
0000
0000
0000
0000
0000
0000
0000
0010
0000
0000
0000
0000
0000
0000
0000
1000
0000
0000
0000
0000
0000
0000
0000
0000
0000
0000
0000
0100
0000
0000
0000
0000
0000
0000
0000
0000
0000
0000
0000
1000
0000
0000
0000
0000
0000
0000
0000
0000
0000
0000
0000
0100
0000
0000
0000
0000
0000
0000
0000
0000
0000
0000
0000
1000
0000
0000
0000
0000
0000
0000
0000
0000
0000
0000
0000
0010
0000
0000
0000
,
0000
0000
0100
0000
0000
0010
0000
0000
1000
0000
0000
0001
0000
0000
0100
0000
0000
0010
0000
0000
1000
0000
0100
0000
1000
0000
0100
0000
0010
0000
0100
0000
0010
0000
0001
0000
0100
0000
0010
0000
0001
0000
0010
0000
0100
0000
0010
0000
,
1000
0100
0010
0001
1000
0100
0010
0001
1000
0100
0010
0001
0100
0010
1000
0100
1000
0001
0110
0000
1010
0000
0101
0000
,
1000
0100
1000
0001
0100
0010
1000
0010
0100
0001
1000
0010
0100
0010
1000
0001
0100
0010
0100
0010
0001
0010
0100
0010
,
0001
0010
0100
0010
1000
0100
0010
0001
0010
0100
1000
0001
0010
0100
1000
0001
1000
0010
0100
0010
1000
0100
1000
0001
,
0110
0000
0101
0000
1100
0000
0100
0010
0001
0010
1000
0010
0001
0010
0100
0001
0100
0010
0001
0010
0100
0010
1000
0100
,
1000
0100
0010
0100
0010
0001
0100
0010
0001
0010
0100
0010
1000
0100
0010
0001
1000
0100
0010
0001
1000
0100
0001
0100
,
0010
0100
0001
0010
0001
1000
0110
0000
1001
0000
1010
0000
1000
0010
0100
1000
0010
0100
0001
1000
0010
0100
0010
1000
,
0001
0100
0010
0100
0010
0001
0010
0100
0010
0001
0010
0100
0010
1000
0100
0010
0001
0010
0100
1000
0001
0010
0100
1000
,
0001
1000
0010
0100
0010
1000
0100
1000
0001
0100
0010
1000
0101
0000
1010
0000
1100
0000
0001
0000
0100
0000
0010
0000
,
2002
0000
0000
0000
0000
0000
0000
0000
3003
0000
0000
0000
;
